mdigital
» » Lucky Millinder And His Orchestra - The Right Kind Of Lovin' / It's Been A Long Long Time

Lucky Millinder And His Orchestra - The Right Kind Of Lovin' / It's Been A Long Long Time download mp3 album

Lucky Millinder And His Orchestra - The Right Kind Of Lovin' / It's Been A Long Long Time download mp3 album
Performer:
Lucky Millinder And His Orchestra
Album:
The Right Kind Of Lovin' / It's Been A Long Long Time
Style:
Jump Blues
Released:
1951
FLAC vers. size:
1893 mb
MP3 vers. size:
1369 mb
WMA vers. size:
1812 mb
Other formats
MP2 AHX MP1 AAC ASF WMA MP4
Rating:
4.3 ★
Votes:
810

Jonah Jones, Pete Brown - Low Down Blues. Peggy Lee - Don't Smoke In Bed, It Takes A Long Train With. A Red Caboose (To Carry My Blues Away). Jazz Gillum - I'm Not The Lad, Long Razor Blues.

Harry James and His Orchestra with Kitty Kallen – It's Been A Long Long Time. Harry James & His Orchestra – I ll Get By As Long As I Have You. 3:25. Harry James & His Orchestra – It s Been A Long Long Time. Lucky Millinder And His Orchestra – It s Been A Long Long Time. Luis Arcaraz And His Orchestra – It s Been A Long, Long Time. Harry James and His Orchestra feat.

Lucky Millinder and His Orchestra. The Chronological Classics: Lucky Millinder and His Orchestra 1943-1947. Lucky Millinder and His Orchestra. The Chronological Classics: Lucky Millinder and His Orchestra 1947-1950. The Right Kind of Lovin', It's Been a Long Long Time. Lucky Millinder & His Orchestra.

It's Been a Long, Long Time" is a jazz song written by Jule Styne and Sammy Cahn that was a hit at the end of World War II. The lyrics are written from the perspective of a person welcoming home his or her spouse at the end of the war. The music was written by Jule Styne and the lyrics were written by Sammy Cahn. A recording by Harry James with vocals by Kitty Kallen reached No. 1 Billboard Hot 100 chart on November 24, 1945

Album Music From Marvel’s Avengers: Endgame (Soundtrack). It’s Been a Long, Long Time Lyrics. Never thought that you would be Standing here so close to me There's so much I feel that I should say But words can wait until some other day. Kiss me once, then kiss me twice Then kiss me once again It’s been a long, long time Haven't felt like this, my dear Since I can't remember when It’s been a long, long time. You'll never know how many dreams I've dreamed about you Or just how empty they all seemed without you So kiss me once, then kiss me twice Then kiss.

The Right Kind of Lovin'. 14. No One Else Could Be. Henry Glover. It's Been a Long Long Time. Henry Glover, Sally Nix. Lucky Millinder.

I Want A Tall Skinny Papa. The Right Kind Of Lovin'. flac" WAVE INDEX 01 00:00:00 TRACK 06 AUDIO TITLE "No One Else Could Be" INDEX 00 02:40:10 FILE "06. No One Else Could B. lac" WAVE INDEX 01 00:00:00 TRACK 07 AUDIO TITLE "It's Been A Long Long Time" INDEX 00 02:45:48 FILE "07. flac" WAVE INDEX 01 00:00:00 TRACK 08 AUDIO TITLE "The Grape Vine" INDEX 00 02:49:26 FILE "08.

B6. Alto Saxophone – Burnie Peacock, Bobby Smith (3)Baritone Saxophone – Ernest "Pinky" Williams Bass – Aaron BellDrums – Kelly MartinGuitar – Clifton "Skeeter" Best Piano – Sonny ThompsonTenor Saxophone – Elbert "Skippy" Williams, Harry "Hot Lips" Johnson Trombone – Alfred Cobbs, Henderson Chambers, Tyree GlennTrumpet – Abdul Salaam, Frank Galbreath, Lamar Wright Jr., Leon MerianVocals – Annisteen Allen, John Sellers, Melvin Moore (2)Written-By – Henry Glover.

Tracklist

A The Right Kind Of Lovin'
B It's Been A Long Long Time